Code:
---------------------------------------------------------------------------------------------------------------------------------------
Movie Info
---------------------------------------------------------------------------------------------------------------------------------------

Movie Name : Jatt Airways
Starring : Alfaaz, Karamjit Anmol, Rana Jang Bahadar, Jaswinder Bhalla, B.N. Sharma, Binu Dhillon
Directed : Harjit Singh Ricky
Producer : Sumit Goyal, Anil Garg
IMDB Ratings: 6.0/10 from 30 users
IMDB : Jatt Airways (2013) - IMDb
Movie Release Date : 30 Aug 2013
Ripper : AnMoL
Source : DVD9 My Own Collection
Audio : Punjabi
Subtitle : English

---------------------------------------------------------------------------------------------------------------------------------------
Tech Info
---------------------------------------------------------------------------------------------------------------------------------------

Format : AVI
Format/Info : Audio Video Interleave
File size : 696 MiB
Duration : 2h 16mn
Overall bit rate : 715 Kbps

Video
Codec ID/Hint : XviD
Duration : 2h 16mn
Bit rate : 626 Kbps
Width : 640 pixels
Height : 256 pixels
Display aspect ratio : 2.500
Frame rate : 23.976 fps
Color space : YUV
Chroma subsampling : 4:2:0
Bit depth : 8 bits
Scan type : Progressive
Compression mode : Lossy
Bits/(Pixel*Frame) : 0.159
Stream size : 609 MiB (88%)

Audio
ID : 1
Format : MPEG Audio
Format version : Version 1
Format profile : Layer 3
Mode : Joint stereo
Mode extension : MS Stereo
Codec ID : 55
Codec ID/Hint : MP3
Duration : 2h 16mn
Bit rate mode : Constant
Bit rate : 80.0 Kbps
Channel(s) : 2 channels
Sampling rate : 32.0 KHz
Compression mode : Lossy
Stream size : 77.8 MiB (11%)












SINGLE LINKS

Code:
http://extabit.com/file/2dudiopq1zd8q/Jatt.Airways.(2013).DVDRip.XviD.1CD.Esub-[DDR-Exclusive].avi
http://extabit.com/file/2dudiopq2mjm2/Jatt.Airways.(2013).DVDRip.XviD.1CD.Esub-[DDR-Exclusive].srt
Code:
http://rapidgator.net/file/985fe3d8a740103d665c52b097204414/Jatt.Airways.(2013).DVDRip.XviD.1CD.Esub-[DDR-Exclusive].avi.html
http://rapidgator.net/file/418a4c9f0d371884dc07a642c4a08cdb/Jatt.Airways.(2013).DVDRip.XviD.1CD.Esub-[DDR-Exclusive].srt.html


Code:
http://lumfile.com/3bm94r4rf3df/Jatt.Airways.(2013).DVDRip.XviD.1CD.Esub-[DDR-Exclusive].avi.html
http://lumfile.com/pir0z59e9m1e/Jatt.Airways.(2013).DVDRip.XviD.1CD.Esub-[DDR-Exclusive].srt.html