Ra One (2011) - Music Videos - Untouched DVD9 - NTSC - Ibraram-=DrC=-























Code:
Movie : Ra One (2011) wikipedia : http://en.wikipedia.org/wiki/Ra.One Imdb : http://www.imdb.com/title/tt1562871/ Language : Hindi | Tamil (a few lines) | Telugu (a few words) | Chinese (a few words) | English (a few lines) Distributor : Eros Source : DVD9 @ iBR (Thanx) Ripper : Ibraram @ DrC Size : 1.36 GB Container : Vobs Untouched Release Date : 26 October 2011 (Australia) Genre : Action | Adventure | Sci-Fi Director : Anubhav Sinha Writers : David Benullo, Shah Rukh Khan (screenplay) Stars : Saqib Saleem, Saba Azaad and Nishant Dahiya Lyricist : Irshad Kamil and Anvita Dutt Guptan Music : Vishal-Shekhar Label : T-Series User Rating : 4.9/10 from 9,661 users Ripper Note: Njoy DrC Release. Always Seed After Complete Enjoy.




Originally from India, Tamil-speaking Shekar Subramaniam

lives a middle-classed life abroad along with his wife,

Sonia, and a school-going son, Prateek. While Sonia is

busy writing a book on converting all female-related

expletives to male, her husband is employed with Barron

Industries, where the owner insists his staff come up

with a plan to launch the ultimate video game or else he

will change his organization to a restaurant and hire

them as waiters. Hoping to create a super-hero, Shekhar

instead faces criticism from Prateek - who hopes to instead

see a kick-*** villain. This conversation does change

Shekhar's thinking and he sets about to create an

indestructible villain, calls him Ra.one (pronounced as

in Lankeshwar Ravan) and its arch-enemy G.One (Jeevan).

Prateek will have to regret passing on this idea on to

his father - for soon their lives will be shattered when

the shape-shifting Ra.One will find a way to enter the real world.





Technical info:





Format : MPEG-PS
Overall bit rate mode : Variable
Overall bit rate : 7 125 Kbps

Video
ID : 224 (0xE0)
Format : MPEG Video
Format version : Version 2
Format profile : Main@Main
Format settings, BVOP : Yes
Format settings, Matrix : Custom
Format settings, GOP : M=3, N=12
Bit rate mode : Variable
Bit rate : 5 415 Kbps
Maximum bit rate : 7 000 Kbps
Width : 720 pixels
Height : 480 pixels
Display aspect ratio : 16:9
Frame rate : 23.976 fps
Standard : NTSC
Color space : YUV
Chroma subsampling : 4:2:0
Bit depth : 8 bits
Scan type : Progressive
Scan order : 2:3 Pulldown
Compression mode : Lossy
Bits/(Pixel*Frame) : 0.654
Stream size : 159 MiB (76%)

Audio #1
ID : 189 (0xBD)-128 (0x80)
Format : AC-3
Format/Info : Audio Coding 3
Mode extension : CM (complete main)
Muxing mode : DVD-Video
Bit rate mode : Constant
Bit rate : 448 Kbps
Channel(s) : 6 channels
Channel positions : Front: L C R, Side: L R, LFE
Sampling rate : 48.0 KHz
Bit depth : 16 bits
Compression mode : Lossy
Delay relative to video : -253ms
Stream size : 13.1 MiB (6%)

Audio #2
ID : 189 (0xBD)-129 (0x81)
Format : AC-3
Format/Info : Audio Coding 3
Mode extension : CM (complete main)
Muxing mode : DVD-Video
Bit rate mode : Constant
Bit rate : 224 Kbps
Channel(s) : 2 channels
Channel positions : Front: L R
Sampling rate : 48.0 KHz
Bit depth : 16 bits
Compression mode : Lossy
Delay relative to video : -189ms
Stream size : 6.56 MiB (3%)

Audio #3
ID : 189 (0xBD)-130 (0x82)
Format : AC-3
Format/Info : Audio Coding 3
Mode extension : CM (complete main)
Muxing mode : DVD-Video
Bit rate mode : Constant
Bit rate : 448 Kbps
Channel(s) : 6 channels
Channel positions : Front: L C R, Side: L R, LFE
Sampling rate : 48.0 KHz
Bit depth : 16 bits
Compression mode : Lossy
Delay relative to video : -253ms
Stream size : 13.1 MiB (6%)

Audio #4
ID : 189 (0xBD)-131 (0x83)
Format : AC-3
Format/Info : Audio Coding 3
Mode extension : CM (complete main)
Muxing mode : DVD-Video
Bit rate mode : Constant
Bit rate : 448 Kbps
Channel(s) : 6 channels
Channel positions : Front: L C R, Side: L R, LFE
Sampling rate : 48.0 KHz
Bit depth : 16 bits
Compression mode : Lossy
Delay relative to video : -253ms
Stream size : 13.1 MiB (6%)

Text #1
ID : 189 (0xBD)-32 (0x20)
Format : RLE
Format/Info : Run-length encoding
Muxing mode : DVD-Video
Delay relative to video : 2s 653ms

Text #2
ID : 189 (0xBD)-33 (0x21)
Format : RLE
Format/Info : Run-length encoding
Muxing mode : DVD-Video
Delay relative to video : 2s 653ms

Text #3
ID : 189 (0xBD)-34 (0x22)
Format : RLE
Format/Info : Run-length encoding
Muxing mode : DVD-Video
Delay relative to video : 2s 653ms

Text #4
ID : 189 (0xBD)-35 (0x23)
Format : RLE
Format/Info : Run-length encoding
Muxing mode : DVD-Video
Delay relative to video : 2s 653ms



Track List:


01 - Right By Your Side - Ra One (2011) - Music Videos - Untouched DVD9 - NTSC - Ibraram-=DrC-=
02 - Criminal - Ra One (2011) - Music Videos - Untouched DVD9 - NTSC - Ibraram-=DrC-=
03 - Bhare Naina - Ra One (2011) - Music Videos - Untouched DVD9 - NTSC - Ibraram-=DrC-=
04 - Dildaara - Ra One (2011) - Music Videos - Untouched DVD9 - NTSC - Ibraram-=DrC-=
05 - Chammak Challo - Ra One (2011) - Music Videos - Untouched DVD9 - NTSC - Ibraram-=DrC-=
06 -Raftaarein - Ra One (2011) - Music Videos - Untouched DVD9 - NTSC - Ibraram-=DrC-=









































Code:
http://www.filesonic.com/file/vZ1cyRe/01 - Right By Your Side - Ra One (2011) - Music Videos - Untouched DVD9 - NTSC - Ibraram.VOB
http://www.filesonic.com/file/PLseszv/02 - Criminal  - Ra One (2011) - Music Videos - Untouched DVD9 - NTSC - Ibraram.VOB
http://www.filesonic.com/file/oQ7zlsX/03 - Bhare Naina - Ra One (2011) - Music Videos - Untouched DVD9 - NTSC - Ibraram.VOB
http://www.filesonic.com/file/OHZjZJE/04 - Dildaara - Ra One (2011) - Music Videos - Untouched DVD9 - NTSC - Ibraram.VOB
http://www.filesonic.com/file/vZ1c1vQ/05 - Chammak Challo - Ra One (2011) - Music Videos - Untouched DVD9 - NTSC - Ibraram.VOB
http://www.filesonic.com/file/hjfxfNQ/06 -Raftaarein - Ra One (2011) - Music Videos - Untouched DVD9 - NTSC - Ibraram.VOB
Code:
http://www.fileserve.com/file/eEBwM6D/01 - Right By Your Side - Ra One (2011) - Music Videos - Untouched DVD9 - NTSC - Ibraram.VOB
http://www.fileserve.com/file/yFJ3yDm/02 - Criminal  - Ra One (2011) - Music Videos - Untouched DVD9 - NTSC - Ibraram.VOB
http://www.fileserve.com/file/hRhGATa/03 - Bhare Naina - Ra One (2011) - Music Videos - Untouched DVD9 - NTSC - Ibraram.VOB
http://www.fileserve.com/file/sRjqJAX/04 - Dildaara - Ra One (2011) - Music Videos - Untouched DVD9 - NTSC - Ibraram.VOB
http://www.fileserve.com/file/Rpq5Tfy/05 - Chammak Challo - Ra One (2011) - Music Videos - Untouched DVD9 - NTSC - Ibraram.VOB
http://www.fileserve.com/file/3JzRAPP/06 -Raftaarein - Ra One (2011) - Music Videos - Untouched DVD9 - NTSC - Ibraram.VOB
Code:
http://www.filejungle.com/f/vnsCHV/01 - Right By Your Side - Ra One (2011) - Music Videos - Untouched DVD9 - NTSC - Ibraram.VOB
http://www.filejungle.com/f/ZYznnf/02 - Criminal  - Ra One (2011) - Music Videos - Untouched DVD9 - NTSC - Ibraram.VOB
http://www.filejungle.com/f/5CgSuU/03 - Bhare Naina - Ra One (2011) - Music Videos - Untouched DVD9 - NTSC - Ibraram.VOB
http://www.filejungle.com/f/pSheQF/04 - Dildaara - Ra One (2011) - Music Videos - Untouched DVD9 - NTSC - Ibraram.VOB
http://www.filejungle.com/f/3HTM9X/05 - Chammak Challo - Ra One (2011) - Music Videos - Untouched DVD9 - NTSC - Ibraram.VOB
http://www.filejungle.com/f/esxNXb/06 -Raftaarein - Ra One (2011) - Music Videos - Untouched DVD9 - NTSC - Ibraram.VOB